Reload Request 老友互助補檔區

此區專為老友互助補檔之用,如檔案下載連結已死等等。
留言請自律,RAW檔案請往 無記亞記標清高清RAW檔互補合作社 留言。
為方便大家清楚知道是「求」檔還是「補」檔,留言時敬請加 [tag]。
例如:[求] XXXXX S01E03 2012-12-12   |   [補] XXXXX S05E09 2011-11-11

Now Loading...

Leave Comment

回應

[求] 行屍 第六季#13 (12/9) UnCut TS 唔知做咩錄到一半沒了……
求"千禧BB檔案"雙語版,小弟喜歡神經科學的紀錄片,感謝您。
【求】法证实录 明珠台2015 外购配音犯罪纪录片
hason兄你好 请问紧急救命第一季和第二季能否补档 发现有女神新垣结衣和比嘉爱未,想三季睇晒
@chisd 多謝你補檔。
多謝WaiTungChu兄,I love you.
@LilyLee 沒有
@xxixixx 你好請問你有冇錄影翡翠台而家逢一至五下午三點九播出 車神超激戰 呢一部動畫呀
J2《緊急救命3》。經歷了十年醫務生涯的主人公們,藍澤、白石及緋山每個人都認真地面對生命,有人失去了家人,有人與戀人相遇,有人則和競爭對手展開了激烈的交鋒,他們將各自面臨新的局面。MKV/1080p/粵語+日語/中文DVB+PGS字幕。主演:藍澤耕作、新垣結衣、戶田惠梨香、比嘉愛未、淺利陽介。http://pan.baidu.com/s/1sluNXmP (vb81)
@動漫迷 9-10 青之祓魔師II 停播
@Katrina 《金田一少年之事件簿R》ViuTV粵語版 全25集 原碼剪輯TS 連結:http://pan.baidu.com/s/1nu8njsd 密碼:qesx
[求]2017-09-10 的 青之祓魔師II 06集 .TS
[求] 再求昨晚(10日)嘅“流行經典” uncut ts,唔該。
[J5]超級工程/China's Mega Project 第2季 全4集 重播[720P-MKV/粤普混聲/繁簡字幕] 改革開放30多年來,中國建設了世界上最大的高速公路網路;架設了眾多全球技術難度最高的橋樑;建成了世界最長的高速鐵路里程,甚至超越了全球其他地區的總和;世界輸送量排名前十的港口,有七個位於中國。链接: https://pan.baidu.com/s/1gfBx0gr 密码: 6jce
[J5]明日科技/Tomorrow's World 第2季 更新到第2集[720P-MKV/粤英雙語/繁簡字幕]明日世界,今天塑造。人工智能、納米技術、醫療輔助生育等涉及人類發展的種種科技,全球各地科學家、工程師正埋首研究,將科幻小說情節變作現實。《明日世界》節目,探索不同領域的科研,預視明日世界面貌。链接: https://pan.baidu.com/s/1pLwofjl 密码: dbhg 超不定時更新。。
[J5]明日科技/Tomorrow's World 第1季 全1集 [720P-MKV/粤英雙語/繁簡字幕]明日世界,今天塑造。人工智能、納米技術、醫療輔助生育等涉及人類發展的種種科技,全球各地科學家、工程師正埋首研究,將科幻小說情節變作現實。《明日世界》節目,探索不同領域的科研,預視明日世界面貌。得一集,其實係講天眼監控。链接: https://pan.baidu.com/s/1kV654px 密码: fctw
[J5]文明之源/Ring of Civilization 全4集 [720P-MKV/粤英雙語/繁簡雙語]亞洲各國留下不少古蹟,每個都承傳一段段歷史。「文明之源」帶你遊歷這些旅遊名勝之餘,也揭開每個古蹟掩藏的故事。隱藏於森林的吳哥窟,反映全盛時期的吳哥皇朝之國力和文化水平緬甸千年古城蒲甘,這個佛國人民如何保育一座座古剎。中國的秦始皇陵的兵馬俑,是否為秦始皇在另一個世界南征北討。萬五年前的古日本繩文時代,對今日日本文化有何影響?链接: https://pan.baidu.com/s/1c1X7Y6k 密码: zdva
RE wallacelee:4some1兄的零3 mega資料夾有update,你可以找一找。
請問有無人有[金田一少年之事件簿R]粵語版 全集? 真的無言感激!
@PS,原來係咁。搞掂就得啦
問題已解決,可用 Banana0713 ffmpeg方法,但改用-c:v copy, 原片HDJ video 片頭部份應該有問題,處理時,出“H.264_bitstream malformed, no startcode found, use the video bitstream filter 'h264_mp4toannexb' to fix it“ error, 當我file cut所需段落出來再行ffmpeg就正常完成。至于用-c:v h264方法,不論處理HDJ或J2部份,當行至一二分鐘片段時,整部機就開始出現間歇性停頓,直至hang死,要reboot。另我求教之前都嘗試用ffmpeg copy方法,但失敗,原因我用MKVToolNix內的mkvmerge檢查出來的tracks number 和用ffmpeg測出來的track number是不一致的,直至看見 Banana0713 的資料,比對下才知有分別。在此多謝各位高手指教。
PS的小问题最好请教WaiTungChu呗,他压了无数剧集及影片,一定可帮到PS解决小小问题。
@PS,死機係點死機?佢出咩error?
@aarv,試過-c:v copy,出現error,所以用-c:v h264再壓。
[求] 另因錄影失敗,求9月6日同盟#23和8日外母#10 uncut ts,唔該。
@aarv 我夜d有時間再試下,thx.
-c:v h264可能會做成影片再翻壓情況, 其實簡單一個-c copy已經可以了
[求]18/08/2017零距離科學 3潔淨飲食揭秘 的視頻, 謝謝
@Fei 請問你是用什麽方法? @Banana0713 我試用你方法去處理原片(12G),但不知是否片頭有問題,開始不久就弄到死機,我會試cut左片頭部份再做,但Fei的似乎ok,不知可否保留原dvb字幕?再多謝各位ching幫忙。
請問哪位大神能提供18/08/2017明珠台零距離科學 3潔淨飲食揭秘 的視頻, 謝謝
@PS,呢條都測試過,可以抽返iNews條片連字幕:ffmpeg -i input.ts -map 0:0 -map 0:1 -map 0:2 -map 0:3 -map 0:4 -map 0:5 -c:v h264 -c:a:0 copy -c:a:1 copy -c:s:0 copy -c:s:1 copy -c:s:2 copy output.ts
@PS,測試過,可以用呢條code抽返J2條片,連埋字幕,而smartcutter都可以剪到:ffmpeg -i input.ts -map 0:9 -map 0:7 -map 0:8 -map 0:10 -c:v h264 -c:a:0 copy -c:a:1 copy -c:s:0 copy output.ts
@PS,對唔住,之前條code有問題,應該用唔到。
@PS,要抽返iNews條片連聲,可以試下呢條code: ffmpeg -i input -map 0:0 -map 0:1 -map 0:2 -map 0:3 -map 0:4 -map 0:5 -map 0:6 -c:v copy -c:a:0 copy -c:a:1 copy output.ts
mytvsuper美剧点播要收费的 目前稀有的配音美剧应该是非凡家庭第一季 后面会慢慢上架 一个月更新一次。 后续相信会有更多旧美剧上架 目前灵感探案三季得第一季有配音
@PS 簡單一些,你上載那個有問題的TS檔,等其他高手給你修復再回傳給你。
我用tsdoctor,揀了J2,再用save new file,但save出來的ts檔,用potplayer播時起晒格,不能用。原ts檔,當播片時,只要選不同的音軌,就會轉回對應的影像,而且是流暢的。
多謝各位提供意見,首先,該文件是MTV錄出來,原因就不知啦,我記得之前都有另一個同樣情況嘅文件。我是初哥,未用過projextX,現我只想分開佢成兩個獨立TS檔,一個HDJ,一個J2,我就可用smartcut cut片,用ffmpeg壓成mkv,再用MKVToolnix加回dvb字幕。如用ffmpeg,或其它方法分開佢,請問是如何,可否詳細講解下,唔該。
@PS 要85台既話係(0,16,17,18,20,850,851,852,853,855,856,857)
@PS 可以用ProjectX既PIDFilter功能, 把需要既PID打入去FilterControl入面既PID list(0,16,17,18,20,820,821,822,823,825), prepare選PIDFilter, 然後start即可
[求]09-08 壹號皇庭 #1 UNCUT-TS, 錄影有問題
@PS,FFmpeg可以睇晒所有tracks架
Duration: 00:04:01.11, start: 66886.585900, bitrate: 16627 kb/s Program 82 Metadata: service_name : J2 service_provider: TVB Stream #0:9[0x335]: Video: h264 (High) ([27][0][0][0] / 0x001B), yuv420p(tv, bt709, top first), 1920x1080 [SAR 1:1 DAR 16:9], 25 fps, 50 tbr, 90k tbn, 50 tbc Stream #0:7[0x336]: Audio: ac3 (AC-3 / 0x332D4341), 48000 Hz, stereo, fltp, 192 kb/s Stream #0:8[0x337]: Audio: ac3 (AC-3 / 0x332D4341), 48000 Hz, stereo, fltp, 192 kb/s Stream #0:10[0x339](CHI): Subtitle: dvb_subtitle ([6][0][0][0] / 0x0006) Stream #0:6[0x3e9]: Unknown: none ([11][0][0][0] / 0x000B) Program 83 Metadata: service_name : iNews service_provider: TVB Program 85 Metadata: service_name : High Definition Jade service_provider: TVB Stream #0:0[0x353]: Video: h264 (High) ([27][0][0][0] / 0x001B), yuv420p(tv, bt709, top first), 1920x1080 [SAR 1:1 DAR 16:9], 25 fps, 25 tbr, 90k tbn, 50 tbc Stream #0:1[0x354]: Audio: ac3 (AC-3 / 0x332D4341), 48000 Hz, stereo, fltp, 192 kb/s Stream #0:2[0x355]: Audio: ac3 (AC-3 / 0x332D4341), 48000 Hz, 5.1(side), fltp, 384 kb/s Stream #0:3[0x357](CHI): Subtitle: dvb_subtitle ([6][0][0][0] / 0x0006) Stream #0:4[0x358](ENG): Subtitle: dvb_subtitle ([6][0][0][0] / 0x0006) Stream #0:5[0x359](CHS): Subtitle: dvb_subtitle ([6][0][0][0] / 0x0006) Stream #0:6[0x3e9]: Unknown: none ([11][0][0][0] / 0x000B)
@PS,路過加把聲:用FFmpeg,輸出兩次,每次只輸出一條片同佢對應嘅聲音,而用subedit可以揀對應嘅字幕。咁唔知又得唔得呢?
@PS,路過加把聲:用FFmpeg,輸出兩次,每次只輸出一條片同佢對應嘅聲音,而用subedit可以揀對應嘅字幕。咁唔知又得唔得呢?
Btw,TSdoctor可以分開,但是部分資訊(如節目表)會沒有了。
@PS 奇怪,我用WMP看到高清翡翠台,但用MPC-HC播放衹看到J2的内容……會不會是file corrupt了?
咁好啦

頁面